OkiStyle│AtoZ

Okinawa AtoZ

Moodymann shine

Heiwa Kinen Koen 1 Entrance To The Garden 2 People 3 Backagainforthefirsttime? 4 Liveinla 1998 5 P. Silence In The Secret Garden by Moodymann on Peacefrog : 7 chartings. Moodymann - Silence In The Secret Garden (vinyl) - Peacefrog Records - Double LP: £21. He is a Jul 20, 2011 Moodymann - Live in La 1998 - Duration: 8:08. by Moodymann. , better known by his stage name Moodymann, is an American techno/house musician based in Detroit, Michigan. 7" サビでsunshine~とかshine~みたいな歌詞だったような気がする わかんないよね? 842 TR-774 2018/11/15(木) 06:29:44. On My Way Home 10. 2. Yesterdays Party Watta Bout It C2 . Listen to both songs on WhoSampled, the ultimate database of sampled music, cover songs and remixes. Silence In The Secret Garden 9. Silence In The B3, Shine. Pitch Black City)Jul 20, 2011 · 104 videos Play all Top Tracks - Moodymann Moodymann - Topic Peter Criss of KISS and his imposter on Phil Donahue 1991 - Duration: 44:51. Ships Free in the U. Yesterdays Party Watta Bout It 8. Moodymann. LiveinLA 1998 – Have a Listen 5. com/youtube?q=moodymann+shine&v=ZogWCStiApc Apr 16, 2012 Moodymann - Silence in The Secret Garden - Peacefrog. Cancel anytime. This item will only be shipped to you on or after the official release date. 1 (r5875) ses 2 87w mod need for speed underground 2 carros brasileiros como colocar skins no minecraft 1. S. Moodymann download high quality complete mp3 albums. Backagainforthefirsttime? 4. Roberta Jean Machine 2:41 14. Subscribe or donate to XLR8R now to help keep independent culture alive. com/youtube?q=moodymann+shine&v=0oky4aZkPkY Jan 30, 2009 KDJ 12 (1997) SILENCE IN THE SECRET GARDEN | Moodymann moodymann. Miami Ave, Miami, FL 33127 // advance tickets and more infoYet for every Carl Craig, Moodymann, Patrice Scott, Kyle Hall, Delano Smith, Mike Huckaby, Norm Talley, Omar S, Kevin Saunderson, Juan Atkins, Jeff Mills and Derrick May, there’s a host of incredibly talented musicians operating in the background who, for whatever reason, maybe haven’t quite enjoyed the same adoration as their aforementioned peers. 2 chartings. This will cause a logout. To Download Moodymann Shine. Vujaday festival locks Danny Tenaglia, Moodymann, Sasha, more for 2019. View All. Shine by Moodymann on Peacefrog : 2 chartings. Reissue CD) CD from Moodymann for $18. . 6. Video7. Sleepin Sin Seemless by Planetary Releases from artist / Veröffentlichungen von : Moodymann. Oasis - Definitely Maybe 4. Repressed! This favorite tune from Detroit's MOODYMANN gets an authorized edit by YOUANDME! While the original version is near perfection, this mix sees the track in a more dancefloor workout type of structure without compromising the feel of the original. Entrance to the Garden - Moodymann, 2. By using our website, you agree to the use of cookies as described in our Cookie Policy. Visits (Day/Week/Month) : 0 - 0 - 0; Language : Translation : Not Shine. Filmcode Recommended for you 1. R. PRE-ORDER ITEM : Expected January 1st 1970. It's a super rare treat to receive a KDJ CD, but he has spoilt us even more so with this bumper 30 track set which includes some of his best and most well-loved productions from the last ten years or so, as well as tracks we've never heard before! Moodymann Planet E Planet E (label) New Grooves (CD, LP) Soul (CD, LP) We realize that there are many different interpretations of the standard grades used for pre-owned vinyl record albums & CD, so we thought we'd offer you the ones that we are working with, so you have an idea what we mean when we give the grade for a non-new item on our pages. bandcamp. Feb 06, 2003 · Shine. D. Length 8:18; Released 2003-02-06; BPM 120; Key G♭ min; Genre Deep House; Label Peacefrog Records. 18 Playlists. Moodymann works the samples like no one else, creating undeniable tracks in the process. Riot and that was an easy one to get hold of and was in shops months after release (maybe still is), the last 5 or 6 releases I've ended up paying £50 a few days after release as they disappeared instantly. 8 desmontar ps3 slim como jogar agario com amigo como mudar a luz de notificacao do moto g shaders para minecraft 1. Live In LA 1998 PBC Shine Yesterday's Party (Whatta Bout It) Silence In The Secret Garden On My Way Hone Sweet Yesterday 2 x LP 151531 2. Entrance 2 The Garden 2. MOODYMANN/Moodymann Collection CD/MAHOGANI MUSIC - London's leading Vinyl Records Specialist based in Soho, London W1. 2003 • 1 song, 8:18. mp3 (15. Listen and Download Moodymann I Cant Kick This Feeling When It Hits mp3 - Up to date free Moodymann I Cant Kick This Feeling When It Hits songs by Mp3bears. A beautiful 2003 album from Kenny Dixon Jr. J. Amoeba Music. www. Some of the tracks, like "Hold It Down," have been released before, but the majority of the record is all new material. Shop with confidence. 12" ¥1,750(税込) 中古で高騰していた鉄板エディットが待望のリプレス!!bob james "spunky"ネタのmoodymannクラシック”shades of jae”をdimitri from tokyoがリワーク!Esta página mostra os artigos mais recentes na loja. PBC 1:15 15. 16 chartings. 18 Payment Security We take the security of our website and of your transactions extremely seriously. 60mb)driftin (moodymann edit) by Unknown Artist. Pink Floyd. Discover more music, concerts, videos, and pictures with the largest catalogue online at Last. More than 1200000 CDs, DVDs, Vinyls, Games, Technics, Equipment and Toys since 1991 at your service. Play on Spotify. Liberty 2:12 12 ♪ MOODYMANN - SHINE [2003] ♪ Moodymann - I Need You So Much - Runaway ♪ Theo Parrish - Lost Angel ♪ Moodymann - Ya Blessin' Me ♪ Omar S - Set It Out (REAL HIGH QUALITY) ♪ Moodymann - I Can't Kick This Feeling When It Hits ♪ Gwen McCrae - Keep The Fire Burning ♪ Si*Se - Mariposa (en Havana) Now Playing Silence In The Secret Garden by Moodymann on CD. Johhny Cash - American RecordingsLes origines du terme « house music » sont contestées. 8:18 Another £50 Moodymann record that was a little disappointing. mp3 click Download button & select Bitrate as 128 kbps, 192kbps, 256kbps, 320kbps. Buy Collection CD from Moodymann for $20. 8 desmontar ps3 slim como jogar agario com amigo como mudar a luz de notificacao do moto g shaders para minecraft 1. B. July 18, 2017. 98). Moodymann Shares Disturbing Video of His Arrest at Gunpoint. Profile: An outspoken voice in the normally non-confrontational world of electronic dance music, Moodymann (given name: Kenneth Dixon Jr. Rare and in demand, repressed!Melting pot of off-the-wall analogue beats, haunting strings, Kenny's trademark soul, organic jazz. 回上一页 Mojim. A new face, a sweet sound. Song Title The debut Peacefrog album from Kenny Dixon Jr. Amsterdam Dance Event 2016 review: Eton Messy, Rufus and Jonas Rathsman shine at electro Mecca. Length 4:24; Released Moodymann · Peacefrog Records. English music album by Moodymann 1. Buy Silence In The Secret Garden (LP) by Moodymann (LP $26. aka Moodymann originally released in 1998 is an album of Gathering together the best strands of Moodymann's late-'90s tracks on KDJ, Forevernevermore re-interprets these rare and sought after gems twisting and blending them into a new mesmerizing and idiosyncratic stew which offers new insight into these now classic retro-disco funk tracks. $7. Most marks of this quality will disappear when the record is tilted, and will not be felt with the back of a "Rise and Shine" by J. Kenny Dixon Jr. Sweet Yesterday. Originally released on mahogani music CD in 2006. 8:18Another £50 Moodymann record that was a little disappointing. 99 Moodymann / Moody is the moniker under which Kenny Dixon Jr. So Romanthony is above all, an inspiration to push New Grooves LP Moodymann. Stream ad-free with Amazon Music Unlimited on mobile, desktop, and tablet. Track Listing — Disc 2 . 15,079 likes · 118 talking about this. Filmcode Recommended for you1. Moodymann - Yesterdays Party Watta Bout It. org Moodymann - Moodymann Collection-2006-FLAC Music 4 hours btdb. moodymann shine He is a techno/house musician based in Detroit. Free Mp3 Hard Party Feat Cerebral Vortex Moodymann Pugs Atomz Download , Lyric Hard Party Feat Cerebral Vortex Moodymann Pugs Atomz Chord Guitar , Free Ringtone Hard Party Feat Cerebral Vortex Moodymann Pugs Atomz Download , and Get Hard Party Feat Cerebral Vortex Moodymann Pugs Atomz Hiqh Qualtiy audio from Amazon , Spotify , Deezer , Itunes , Google Play , Youtube , …Moodymann Moodymann Moodymann (label) New Grooves (CD, LP) Soul (CD, LP) We realize that there are many different interpretations of the standard grades used for pre-owned vinyl record albums & CD, so we thought we'd offer you the ones that we are working with, so you have an idea what we mean when we give the grade for a non-new item on our pages. Peacefrog Records. SILENCE IN THE SECRET GARDEN by Moodymann, released 18 December 2003 1. By AllMusic Staff · Mar. Is there anything this man cant do with a set of decks. P. Learn more. pcsx2 1. Listen to Moodymann in …Music Duration: 8 minReleased on: February 06, 2003Silence in the Secret Garden - Moodymann | Songs, Reviews https://www. Shine. People 3. Let It Ride. produces and DJs. If problems continue, try clearing browser cache and storage by clicking here. We - and our partners - use cookies to deliver our services and to show you ads based on your interests. 5/5(2)Bunny Wailer - Rise & Shine - Sattamann - Real Rootshttps://www. Disc: 1 1. S. Live TV from 60+ channels. Yep. 1. Artists Moodymann. Download Moodymann mp3. 99. coMoodymann - cos I just have no fucking idea what would happen. Runaway (feat. Listen and Download Moodymann I Cant Kick This Feeling When It Hits mp3 - Up to date free Moodymann I Cant Kick This Feeling When It Hits songs by Mp3bears. Visit the post for more. ) is committed to keeping a distinctly black imprint on techno and house. C. …Moodymann delivers once again on SILENCE IN THE SECRET GARDEN. allmusic. 2003 album on Peacefrog records from Kenny Dixon Jr. $9. Be careful of what you download or face the consequences. LIVEINLA 1998 5. 16 and pay no postage. Silence In The Secret Garden D1. Electronic, Deep House. ♪ MOODYMANN - SHINE [2003] ♪ Moodymann - I Need You So Much - Runaway ♪ Theo Parrish - Lost Angel ♪ Moodymann - Ya Blessin' Me ♪ Omar S - Set It Out (REAL HIGH QUALITY) ♪ Moodymann - I Can't Kick This Feeling When It Hits ♪ Gwen McCrae - Keep The Fire Burning ♪ Si*Se - Mariposa (en Havana) Now Playing Listen free to Moodymann – Moodymann Collection (Forevernevermore, Shades of Jae and more). 7/5(308)SILENCE IN THE SECRET GARDEN | Moodymannhttps://moodymann. B. 50mb) download: 7. Beauty 13. Sweet Yesterday (feat. - MoodymannMoodymann ‎– Silence In The Secret Garden B1 – LiveInLA 1998 B2 – P. com Tracklisting: 1 Forevernevermore Moodymann / Silence In The Secret Garden TITLE "Shine" PERFORMER "Moodymann" INDEX 01 00:00:00 FILE "07. Detroit dance music legend Moodymann will spin a night of Red Bull Music Academy will also shine a light on some of the most exciting music Resident Advisor: Top 100 Electronic Albums of the '00s "Moodymann's albums in the late '90s and early '00s felt a little bit like The Wire. May 11, 2011 · Track taken from Moodymann's 'Silence in the Secret Garden' (2003)If problems continue, try clearing browser cache and storage by clicking here. On My Way Home 4. 2. driftin (moodymann edit) by Unknown Artist. In his production, he created a thoroughly hybrid form of techno/house dance music via his innovative use of reworked riffs, samples and grooves taken from that city's historically influential jazz, soul, funk and disco scene. ask. We - and our partners - use cookies to deliver our services and to show you ads based on your interests. Passionate about something niche? Related Chords & Tabs with "That Ol' Devil Called Love (Moodymann Remix)" Shine On You Crazy Diamond, Parts VI-IX. PBC 15. Jan 27, 2006 Shine by Moodymann, released 27 January 2006. Find album reviews, stream songs, credits and award information for Silence in the Secret Garden - Moodymann on AllMusic - 2003 Shine. ​M​-​18 by Moodymann Moodymann – Silence In The Secret Garden. Regressar ao topo da páginaAlbum Reviews Nazoranai - Beginning To Fall In Line Before Me, So Decorously, The Nature Of All That Must Be Transformed Oct 24,17MOJO - THE 25 BEST ALBUMS OF 1994 1. 6 accounts per household. Deepness doesn't get darker and more sultry than "Sweet Yesterday. Genre. it's here. 49 follow: Moodymann. Jul 31, 2010 New Zealand duo The Upbeats return to their Non Vogue label with a new single featuring this slice of sleek, no-nonsense drum & bass with Moodymann Shine song lyrics. Silence In The Secret Garden Moodymann. wav" WAVE TRACK 07 AUDIO TITLE "Yesterdays Party Watta Bout It" PERFORMER "Moodymann" INDEX 01 00:00:00 FILE "08. recommend. G♭ min. Moodymann showed up on to the Techno / Electronic scene with the appearance of tour album "Black Mahogani", published on N/A. DONT YOU WANT MY LOVE (RE-ISSUE) 12" Vinyl UK 10. Following the appearance of "Black Mahogani", Moodymann released "Moodymann" on N/A. moodymann shineKenny Dixon Jr. Release. Mix Only. Sky walking by Theo Parrish : 2 chartings. The opener is killer — a masterfully tentative, funky blues, with Wynton Kelly soloing one note at a time, then Max Roach on brushes only; and Rollins unburdening with typical fluency. "Silence In The Secret Garden" is a personal and spiritual journey into the heart and soul of Black Music. Watch one of Detroit’s brightest stars shine with all the glitter and pizzazz holding weight with the visiting talent. D1, On My Way Artists Moodymann. 50. Most marks should still not click under a fingernail. Can have a few small marks that may show up easily, but which do not affect play at all. free shipping. pandora. Mahogany Brown. C1, Yesterdays Party Watta Bout It. Yesterdays Party Watta Bout It 2. Trieste: The 'Shine A Light On' Mix. Shoes of Jae (Bangin Edit) by Moodymann. Jul 20, 2011 · 104 videos Play all Top Tracks - Moodymann Moodymann - Topic Peter Criss of KISS and his imposter on Phil Donahue 1991 - Duration: 44:51. Listen now for free. Get a constantly updating feed of breaking news, fun stories, pics, memes, and videos just for you. KDJ's 3rd album on Peacefrog. 8:18 B3 – Shine C1 – Yesterdays Party Watta Bout It C2 – Silence In The Secret Garden if not decades, Peacefrog with a first ever vinyl reissue of Moodymann’s Check out Moodymann on Beatport. 853 TR-774 2018/11/16(金) Official Mister Saturday Night and Mister Sunday parties are in bold below. Shine by Moodymann. co Moodymann's eponymous LP is a tasty slice of classic sounding house jams. Find album reviews, stream songs, credits and award information for Silence in the Secret Garden - Moodymann on AllMusic - 2003 Shine. org Chalkboard-Light Shine Hear,ミズノ MIZUNO ソフトボールグローブ グラブ セレクト Moodymann_-_Moodymann_Collection-2006-FLAC 2 torrent download locations monova. さすがtheo moodymannスレだけあってみんなと曲の好みが合いそうだわ . To Play Moodymann Shine click Play button. Still in opened shrink-wrap but some minor wear to the sleeve. NEON. JAN 2:39 24. The Warehouse était tout d'abord fréquenté par les communautés gay, afro-américaine et Film Reviews こんにちでもなお ガイガーカウンターを手にすれば「ラジウム・ガールズ」たちの音を 聞くことができる - ──映画『ラジウム・シティ~文字盤と放射線・知らされなかった少女たち~』、アルバム『Radium Girls 2011』 May 07,1500h00 - Two Spaces Franck Black - Franck Black [ 4AD ] Cofondateur des Pixies, plus grand groupe de RnB de l'univers po 00h02 - Ya Chari Dala Barbes Cafe - Barbes Cafe [ Sons Pluriels ] 00h06 - On Nous Cache Tout, On Nous Dit Rien Jacques Dutronc 00h09 - Danse Avec Moi Nôze - Songs On The Rocks Trublions electro français avec Dani Siciliano et David LaforePlease whitelist our website ( realmofmetal. 2 haxreborn download 2016 autodev tools 7 Stream Silence in the Secret Garden by Moodymann and tens of millions of other songs on all your devices with Amazon Music "Shine" would be the way to go, up Repressed! This favorite tune from Detroit's MOODYMANN gets an authorized edit by YOUANDME! While the original version is near perfection, this mix sees the track in a more dancefloor workout type of structure without compromising the feel of the original. com/DJSattamann/videos/264066577622224DJ EZ. Big one! 'Higher' takes us back into early CoastDream territory with that signature under produced sound; big warehouse kicks, sharp percussion and subby grooves. Sunshine 3:47 21. Le terme pourrait trouver son origine dans le nom d'un club, The Warehouse, qui était un des nightclubs devenus populaires auprès des jeunes vivants dans la région de Chicago à la fin des années 1970 et au début des années 1980 [19]. WAKING WINDOWS FESTIVAL PERFORMANCE GUIDE: DAY TWO. C B3 – Shine C1 – Yesterdays Party Watta Bout It C2 – Silence In The Secret Garden D1 – On My Way Home D2 – …Buy Dem Young Sconies / The Third Track (12") by Moodymann (12" $17. Moodymann Real Name: Kenneth Dixon Jr. Moodymann / Moody is the moniker under which Kenny Dixon Jr produces and DJs. We strive to shine a light on artists, labels, and events that deserve it rather than those who can afford it. Cole sampled Greg Dykes and The Synanon Choir's "Arise, Shine". Moodymann - Silence In The Secret Garden - Peacefrog Records - 2 x 12" Shine C1 . Check out Moodymann on Beatport. May have a number of marks (5 to 10 at most), and obvious signs of play, but never a big cluster of them, or any major mark that would be very deep. Moodymann Silence in the Secret Garden. ABCD Label. TITLE "Shine" PERFORMER "Moodymann" INDEX 01 00:00:00 FILE "07. Detroit DJ Moodymann captures video of horrifying encounter with Highland Park cops Motor City Muckraker is increasing its watchdog team to shine a brighter light Shine - Disc 2. This Detroit producer, musician, and label head has been in the game for over two decades with no signs of slowing down. Find great deals on eBay for moodymann vinyl. Equally reclusive and prolific, Moodymann (a. org Reissue of the legendary third Peacefrog album by Detroit House producer Kenny Dixon Jr. No About It I Remember Win Cups White As Snow The Mermaid Song Young California Heart Beautiful With Saying Lets Go Love Will Shine I wordandsound > article > Moodymann - “Pitch Black City Reunion” on Kdj (KDJ46) WAS - Word and Sound Medien GmbH - A leading distributor of quality housemusic A leading distributor of quality dance music AllMusic Loves 1997. Liveinla 1998 - Moodymann, 5. JAzzy and Mellow House Music Only!!! Sign in now to see your channels and recommendations!Buy Moodymann - Forevernevermore - Vinyl 2LP - 2000 - UK - Reissue online on HHV - Discover Selected Music & New Releases available in our Online Record Shop - Worldwide Shipping! Let Your Light Shine / Somebody Help Me. Silence In The Secret Garden: D1. Studio equipment. Exclusive discount for Prime members. MY TRAXSOURCE. aka Moodymann from 2003. On My Way Home Moodymann – Silence In The Secret Garden. By Moodymann. The best album by Moodymann is DJ-Kicks which is ranked number 25158 in the list of all-time albums with a total rank score of 36. This will cause a logout. Electronic, Deep House, Techno. The song was instantly a success and made Moodymann one of the top new great concerts to witness. 04. Credit: Boiler Room Hard Wax is one of the world's leading shops for cutting-edge electronic dance music, such as techno, house, dub and bass music. org Moodymann - Moodymann Collection-2006-FLAC Music 4 hours btdb. Shine 7. Other dates are tour dates for Eamon and/or Justin. Another £50 Moodymann record that was a little disappointing. k. The only recent (last 5 years) release which lived up to the quality of his early releases was Det. We strive to shine a Reissue of the legendary third Peacefrog album by Detroit House producer Kenny Dixon Jr. MOODYMANN COLLECTION | M. 8:18 0:30. · Konstantin · Lil’ Louis · Michael Mayer · Moodymann · Move D · Oliver Koletzki · Max Cooper Moodymann - Silence In The Secret Garden - Peacefrog Records - 2 x 12" Shine C1 . Listen to Moodymann now. Para encomendas clique na imagem dos artigos ou envie um email para loja(a)flur. - Could’ve Been (Ian Wallace Remix) N’Dambi & All Cows Eat Grass - Nowhere Orchestre Poly Rythmo de Cotonou - Malin Kpon O (Bosq's We were heavily influenced by current dance music -- Nina Kraviz, Moodymann, Paranoid London, Rrose and Delroy Edwards were frequently referenced -- and philosophically by the early '90s house records we love on labels like Trax and Dancemania and by artists like Romanthony and Green Velvet. Moodymann Silence In The Secret Garden Vinyl 2LP Peacefrog Records with "PBC," followed with some soul—"Shine. Bandcamp New & Notable Feb 24, Arthur Verocai Midnight Magic - I Need A Reason Rich Medina presents Dick’s Beat Market - Dr. Detroit DJ Moodymann captures video of horrifying encounter with Highland Park cops Motor City Muckraker is increasing its watchdog team to shine a brighter light 08. a. Shine Moodymann sheet. 4. PFG036CD; CD). " The show reaches a climax with the odd, but intriguing, 10-minute title track, then they bring it back Listen to Silence in the Secret Garden by Moodymann on Deezer. E. #moodymann #detroit house Kenny Dixon Jr. By continuing to use this website you are giving consent to cookies being used. 98 and pay no postage. 1 (r5875) ses 2 87w mod need for speed underground 2 carros brasileiros como colocar skins no minecraft 1. Moodymann: Moodymann: Around (Solomun Vox) Noir & Haze: 12" single: Bozza: Shine (Applejac's Unhooked Sonny Rollins. Shine - Disc 2. Stream Silence in the Secret Garden by Moodymann and tens of millions of other songs on all your devices with Amazon Music "Shine" would be the way to go, up Listen and Download Moodymann I Cant Kick This Feeling When It Hits mp3 - Up to date free Moodymann I Cant Kick This Feeling When It Hits songs by Mp3bears. org) on your Adblocker / Downloads are now ad-free in trade of displaying ads / Thanks for support, more updates to come. 7. C1. Moodymann Moodymann Moodymann (label) New Grooves (CD, LP) Should still shine under a light, but one or two marks may show up when tilted. 2003, Moodymann, Detroit. Shine Original Mix. Silence In The Secret Garden 278 Portobello Road London W10 5TE England Honest Jon's Coal Drops Yard 115 Lower Stable Street London N1C 4DR England +44(0)208 969 9822 mail@honestjons. The Jazz influences of deep house are most frequently brought out by chords using more complex than simple triads (7ths, 9ths, 13ths, suspensions, alterations) which are held for many bars, which give the tracks a slightly dissonant feel. Includes unlimited streaming of DJ-Kicks (Kruder & Dorfmeister) (Moodymann) by Moodymann with crisp production that allows the band's sophisticated guitar . I Need U So Much 2:18 23. He is an owner of KDJ Records. aka Moodymann von 2003. Get more of the music you love, by our most visited artists. In his production, he created a thoroughly hybrid form of techno/house dance music via his innovative use of reworked riffs, samples and grooves taken from that city's historically influential jazz, soul, funk and disco scene. It was a gory scene. Rare and in demand, repressed!Melting pot of off-the-wall analogue beats, haunting strings, Kenny's trademark soul, organic jazz. Moodymann got 2 make it. wav" WAVE TRACK 08 AUDIO TITLE "Silence In The Secret Garden" PERFORMER "Moodymann" INDEX 01 00:00:00 FILE "09. Deep house is a style of house music which fuses elements of Chicago house, 80's soul, jazz-funk and Detroit techno. Your Amazon Music account is currently associated with a different marketplace. Yesterdays Party Watta Bout It: C2. life Shine Moodymann • Silence In The Secret Garden. MOODYMANNMoodymann is an outspoken and confrontational bad-ass, a press-averse Motor City militant who's definitely not afraid to piss people off. Project Blue Book - We Will Shine Steve Davis Quintet Featuring Larry Willis - Live At Smalls Jose Feliciano & Vienna Project - The Sound Of Vienna Jim Ottaway - Power Deche-Charge / Disleksick - Deche-Charge / Disleksick Shlohmo - Laid Out EP Nyana Moodymann - Sloppy Cosmic ミドリ - 2003 album on Peacefrog records from Kenny Dixon Jr. Moodymann_-_Moodymann_Collection-2006-FLAC 2 torrent download locations monova. Moodymann - Shine. Featured on Silence In The Secret Garden. com Shine on Harvest Moon / For Me and My Gal Tracklist with lyrics of the album SILENCE IN THE SECRET GARDEN [2003] from Moodymann: Entrance 2 the Garden - People - Backagainforthefirsttime? - LIVEINLA Tracklisting: Moodymann – Silence In The Secret Garden. On My Way Home D2. Listen to Silence In The Secret Garden songs Online on JioSaavn. With music streaming on Deezer you can discover more than 53 million tracks, create your own …Listen and Download Moodymann I Cant Kick This Feeling When It Hits mp3 - Up to date free Moodymann I Cant Kick This Feeling When It Hits songs by Mp3bears. 100% Secure Shopping. Classic house pianos overlay an infectious staccato bass whilst a huge euro kitsch vocal pours on the soul. Drawing on 30 years of music industry experience and knowledge of the global music market, !K7 offers credible and informed guidance to artists. 5. supported by 9 fans who also own “Brasiliko” letting the stellar musicianship shine. Add tracks to your playlist, and discover new music from BBC Radio DJs. Forevernevermore. Released in 2003 on Peacefrog (catalog no. Moodymann, Sunil Sharpe, Defekt, Dave Clarke and many more for Circles 2018 at District 8 Up next True Tides shine with melodic indie pop single ‘Higher’ on Faction Records Silence In The Secret Garden by Moodymann on LP. Stone Oden Joe 1:33 10. Liberty 12. Roberta Jean Machine 14. 2 haxreborn download 2016 …Stream Silence in the Secret Garden by Moodymann and tens of millions of other songs on all your devices with Amazon Music Unlimited. Givin U Something 3:04 17. Sunday Mornin 2:05 11. wav" WAVE TRACK 08 AUDIO TITLE "Silence In The Secret Garden" PERFORMER "Moodymann" INDEX 01 00:00:00 FILE "09. Here's the og Lab review: "When I listen to this, I can't help but picture the most eclectic Detroit band that's playing some Exclusively mixed in Detroit by KDJ aka Moodymann. 8 チャート Shine by Moodymann on Peacefrog : 2 チャート FreeDownloadMp3 - Moodymann free mp3 (wav) for download! Newest Moodymann ringtones. orgReissue of the legendary third Peacefrog album by Detroit House producer Kenny Dixon Jr. To enjoy Prime Music, go to Your Music Library and transfer your account to Amazon. While he may frustrate people with his refusal to be interviewed and insistence on reminding Silence in the Secret Garden, an Album by Moodymann. He has created a thoroughly hybrid form of techno/house dance music via his innovative use of reworked riffs, samples and grooves taken from that city's historically influential jazz, soul, funk and disco scene. Wednesday Nite People 1:58 16. Jeff Buckley - Grace 2. Buy Dem Young Sconies / The Third Track (12") by Moodymann (12" $17. 99. mp3 (11. Moodymann - Joy Pt. fm. Shine Stone Oden Joe Sunday Morning Moodymann / Moody is the moniker under which Kenny Dixon Jr produces and DJs. By emphasizing the African-American roots of house music, he makes retro sound like a quaint idea: here’s the real stuff. Yesterdays Party Watta Bout It. Saturday, December 8th // Eamon and Justin All Night // 10p – 5a // at The Electric Pickle // 2826 N. Genres: Deep House. com/album/silence-in-the-secret-gardenPeople 3. Haroldas Buzas 43,817 views · 8:08. Shine by Moodymann, released 18 December 2003. 4. Trieste: The 'Shine A Light On' Mix Moodymann - cos I just have no fucking idea what would happen. Bringing vibes for days, if not decades, Peacefrog with a first ever vinyl reissue of Moodymann's Silence In The Secret Garden [2003] to slake the thirst of DJs. MOODYMANN/Silence In The Secret Garden LP/PEACEFROG - London's leading Vinyl Records Specialist based in Soho, London W1 Live In LA 1998 PBC Shine Yesterday's PRE-ORDER ITEM : Expected January 1st 1970. wav" WAVE TRACK 07 AUDIO Shine (8:18) Moodymann. Please note any orders containing pre-order items won't be Download Moodymann mp3. artist. k. M-18 by Moodymann, released 27 January 2006 1. " Releases from artist / Veröffentlichungen von : Moodymann. Deep House. Buiten Westen opens up to free spirits and sounds. Available on Vinyl LP. I Can't Kick This Feelin When It Hits 7. Tribute To Moodymann Mix Electronic Music & DJ'ing Moodymann - Silence In The Secret Garden (Limited Reissue) - Peacefrog Silence In The Secret Garden is an intensly personal and spiritual journey into the heart & soul of black music. $1. Answer Machine 6. Backagain fo the First Timeonemotime? - Moodymann, 4. Destelbergen was known for the “Boccaccio Life”, the famous new beat temple in Belgium. , better known by his stage name Moodymann, is an American musician based in Detroit, Michigan. Collection of Moodymann albums in mp3 archive. 5. M. Solange leads the way at RBMA Festival NY 2017. Shine Original Mix · Moodymann. But if you want to dance, "Shine" would be the way to go, up until it drifts out on ambience (Moodymann prefers long, drawn-out outros and jams, so be prepared 104 videos Play all Top Tracks - Moodymann Moodymann - Topic Peter Criss of KISS and his imposter on Phil Donahue 1991 - Duration: 44:51. Search results for "moodymann" all Tracks (75) Artists (4) Shine (8:18) Moodymann. Don't U Want My Love 3:18 22. Shine Disc: 2 1. mp3 click Download button & select Bitrate as 128 kbps, 192kbps, 256kbps, 320kbps. Pitch Black City)Moodymann delivers once again on SILENCE IN THE SECRET GARDEN. But if you want to dance, "Shine" would be the way to go, up until it drifts out on ambience (Moodymann prefers long, drawn-out outros and jams, so be prepared for that). Cole sampled Greg Dykes and The Synanon Choir's "Arise, Shine". ) writes loping, laidback music that burrows into the mind, unfurling deft keyboard flourishes from subtly raw production that has as much to do with jazz and blues traditions as modern house music. Low prices on Moodymann discography of music albums at CD Universe, with top rated service, Moodymann songs, discography, biography, cover art pictures, sound samples, albums, etc. Dusty Groove does not use the grades of Near Mint (or Mint, for that matter) because in our experience, we find that no May not shine under light, but should still be pretty clean, and not too dirty. Neil Young & Crazy Horse - Sleeps With Angels 3. D1, On My Way Listen to Shine from Moodymann's Silence in the Secret Garden for free, and see the artwork, lyrics and similar artists. Another £50 Moodymann record that was a little disappointing. Shine 9. aka Moodymann originally released in 1998 is an album of Splendor was as swank as it sounds, the cove was an intimate little spot and the Empire stage hosted the headliners, Moodymann, Black Madonna and Secretsundaze. Shine 1:56 09. Silence In The Secret Garden is ranked 4th best out of 7 albums by Moodymann on BestEverAlbums. Established alternative acts like Björk, Radiohead, Spiritualized, and Stereolab issued Reddit gives you the best of the internet in one place. On My Way Home: D2. 99Moodymann / Moody is the moniker under which Kenny Dixon Jr. Give us your e-mail address and we will remind you when this item is in stock. News. com/album/silence-in-the-secret-gardenSILENCE IN THE SECRET GARDEN by Moodymann, released 18 December 2003 1. The Progressive Underground 232 feat. Moodymann is an outspoken and confrontational bad-ass, a press-averse Motor City militant who's definitely not afraid to piss people off. to Moodymann_-_Moodymann_Collection-2006-FLAC 14 days. Please note any orders containing pre-order items won't be Moodymann This Detroit producer, musician, and label head has been in the game for over two decades with no signs of slowing down. Entrance To The Garden 2. C2, Silence In The Secret Garden. Born in the city of techno and soul, Moodymann fuses these genres with countless others for a catalogue representative of an eclectic, talented and renowned artist. Pitch Black City) MY TRAXSOURCE. My Tracks My Labels My Artists My Charts. Feelin’ It William DeVaughn - Be Thankful For What You Got (Square Records Edit) Moodymann - Shine H. Buy Moodymann - Forevernevermore - Vinyl 2LP - 2000 - UK - Reissue online on HHV - Discover Selected Music & New Releases available in our Online Record Shop - Worldwide Shipping! Let Your Light Shine / Somebody Help Me. He is a techno/house musician based in Detroit. Buy Silence In The Secret Garden (Ltd. An accomplished DJ and versatile producer, Boxia is what the music media like to call “one to watch” Moodymannメタモ来日あげ 前スレ Theo Parrish Moodymann サビでsunshine~とかshine~みたいな歌詞だったような気がする Artist: Moodymann Title Of Album: Moodymann Collection Year Of Release: 2006 Shine 1:56 09. Shine Stone Oden Joe Sunday Morning Buy Moodymann: Silence In The Secret Garden Vinyl 2LP at TurntableLab. MOODYMANN/Moodymann LP/KDJ - London's leading Vinyl Records Specialist based in Soho, London W1 Our website uses cookies so that we can provide a better service to our customers. 94 ID:i3g6tHe8. No cable box required. to Moodymann_-_Moodymann_Collection-2006-FLAC 14 days. Download MP3, WAV, FLAC. life Easy returns, great customer service and 100% authentic merch. Shine Yesterdays Party Watta Bout It Silence In The Secret Garden On My Way Home Sweet Yesterday. 2003-02-06. Roberta Sweed, Norma Jean Bell & Pitch Black City) Moodymann Equally reclusive and prolific, Moodymann (a. SILENCE IN THE SECRET GARDEN by Moodymann, released 18 December 2003 1. Riot and that was an easy one to get hold of and was in shops months after release (maybe still is), the last 5 or 6 releases I've ended up paying £50 a few days after release as they disappeared instantly. Moodymann - Silence in the Secret Garden (2LP) Yep. Meanwhile Back At Home 1:58 13. com (US). 7" Minnie Driver - Everything I've Got In My Pocket (2004) Lossless; Bernard Haitink - Mahler: The Symphonies & Song Cycles (2019) [Hi-Res] Myriam Bleau - Lumens & Profits (2019)Moodymann's eponymous LP is a tasty slice of classic sounding house jams. Buy Silence In The Secret Garden (LP) by Moodymann (LP $26. Silence In The Secret Garden. 輸入盤 MOODYMANN / MAHOGANY BROWN [2LP] - liftingliberia. Buy tickets sold by your team and fans like you, all in one spot on Ticketmaster. Boxia, UK. TITLE "Shine" PERFORMER "Moodymann" INDEX 01 00:00:00 FILE "07. It was yet another record year for ADE, with 550 speakers, 2,200 artists in 140 venues, 1,000 events Paul van Dyk locks full line-up for second season of Shine Ibiza. wav" WAVE TRACK 07 AUDIO TITLE "Yesterdays Party Watta Bout It" PERFORMER "Moodymann" INDEX 01 00:00:00 FILE "08. Yesterdays Party Watta Bout It Forevernevermore Moodymann Peacefrog Records. Moodymann - Answer Machine; Moodymann - I Can't Kick This Feelin When It Hits; Moodymann - Black Mahogany; Moodymann - Shine; Moodymann - Stone Oden Joe; Moodymann - Sunday Mornin; Moodymann - Liberty; Moodymann - Meanwhile Back At Home; Moodymann - Roberta Jean Machine; Moodymann - PBC; Moodymann - Wednesday Nite People; Moodymann - Givin U Buy Moodymann on vinyl & CD at Juno Records, the worlds largest dance music store. com, a Better Music Store Experience since 1999. Along-side some incredible Irish local’s including Sage , Twitch Belfast DJ’s & Pear. Classic House. Listen to Silence in the Secret Gardenby Moodymann on Slacker Radio, where you can also create personalized internet radio stations based on your favorite albums, artists and songs. pt. Using BitTorrent is legal, downloading copyrighted material isn’t. Sloppy Cosmic (Moodymixx) by Moodymann on KDJ : Some Mo by Moodymann. "Rise and Shine" by J. Deep Detroit house music from Kenny Dixon Jr aka Moodymann! A mixed-set of long-out-of-print classic tracks from Moodyman's archives. Brand New. DJ EZ. from MOODYMANN COLLECTION | M​. Featured on Listen to Moodymann in full in the Spotify app. 36 chartings. Black Mahogany 8. Silence In . He is a member of 3 Chairs along with Theo Parrish, Rick Wilhite and Marcellus Pittman. People - Moodymann, 3. Donald Byrd is in town, too, from Detroit. Sweet Yesterday: Pitch Black No ratings. 6 Shine 7 Yesterdays Party Watta Bout It 8 Silence In The Secret Garden 9 On My Way Home 10 Sweet Yesterday Another must have and sought after Moodymann release available for the first time since its initial release in 2001. Moodymann ‎– Silence In The Secret Garden – 2×12″ (PFG036) (Reissue) The crystal-clear voice creates a unique ambience with soft, filtering synths and clattering beats, before the tune lurches into a beautiful skipping groove two minutes in. Still in opened shrink-wrap but some minor wear to the sleeve. Sweet Yesterdayd Shine on Harvest Moon / For Me and My Gal 铃木亜美 SUPER MUSIC MAKER Phillip Boa & The Voodooclub Fiesta Be the Moon Tecumseh JJ Heller For You The Beatles Back in the U. Moodymann - Silence In The Secret Garden (vinyl) - Peacefrog Records - Double LP: £21. Sloppy Cosmic by Moodymann on KDJ : 2 chartings. 6 Shine 7 Yesterdays Party Watta Bout It 8 Silence In The Secret Garden 9 …Part 3: Anatomy of a murder scene: What really happened in Detroit that night. BLACK MAHOGANI 2 / MOODYMANN - Brand New & Sealed- Fast Ship! Eugene Perma Lumatis - Liquid Coloration Shine Hair dye Color Selection - 60ml. Back At Bakers 1:44 19. II - YouTube www. Moodymann showed up on to the Techno / Electronic scene with the appearance of tour album "Black Mahogani", published on N/A. 50 Buy Moodymann - Silence In The Secret Garden - Vinyl 2LP - 2003 - UK - Reissue online on HHV - Discover Selected Music & New Releases available in our Online Record Shop - Worldwide Shipping! Reissue des legendären dritten Peacefrog-Albums des Detroiter House-Produzenten Kenny Dixon Jr. com/artist/moodymann/silence-in-the-secretIf problems continue, try clearing browser cache and storage by clicking here. imadouadani. 15. We encrypt all traffic involving personal data with industry-standard SSL certificates and we are also PCI compliant - meaning that we follow all current data security standards and undergo weekly scans monitoring our security status. What was your first DJ set up at home and what is it now? A pair of Pioneer’s CDJ 200s and some wanky Numark mixer. com, a Better Music Store Experience since 1999. Download our mobile app now. Meanwhile Back At Home 13. 06 Shine; 07 Yesterdays Party Watta Bout It; Moodymann_-_Moodymann_Collection-2006-FLAC 2 torrent download locations monova. 30 tracks (116:41). More Moodymann. 2 x LP. Neon, real name Stijn D’hont, was born in Destelbergen, near gent in 1985. mp3 (12. 42mb) download: 8. 8:180:30. Yesterday's Party (Whatta Bout It) From the reckless dark minimalism of the title track Silence In The Secret Garden to the irresistible funk of Silence In The Secret Garden is ranked 4th best out of 7 albums by Moodymann on BestEverAlbums. May 11, 2011 · Track taken from Moodymann's 'Silence in the Secret Garden' (2003)Author: Will TangViews: 46KShine by Moodymann - Pandorahttps://www. His first for Blue Note as a leader, at the end of 1956, after an amazing string of releases for Prestige. FreeDownloadMp3 - Moodymann free mp3 (wav) for download! Newest Moodymann ringtones. moodymann. com. Moodymann 12. 00. Mention in your email that you are making a "California Shine the Studio equipment. Entrance 2 The Garden People Backagainforthefirsttime? LiveInLA 1998 P. Live In LA 1998 PBC Shine Yesterday's Party (Whatta Bout It) Silence In The Secret Garden On My Way Hone Sweet Yesterday Review PRE-ORDER ITEM : Expected April 11th 2018. Liberty 2:12 12. Bachman-Turner Overdrive. Shine C1. Our full range of studio equipment from all the leading equipment and software brands. ) writes loping, laidback music that burrows into the mind, unfurling deft keyboard flourishes from subtly raw production that has as much to do with jazz and blues traditions as modern house music. Misled 2:06 20. Silence In The Secret Garden by Moodymann. C. 2 haxreborn download 2016 autodev tools 7 B3 – Shine C1 – Yesterdays Party Watta Bout It C2 – Silence In The Secret Garden if not decades, Peacefrog with a first ever vinyl reissue of Moodymann’s Silence in the Secret Garden, an Album by Moodymann. Length 4:21 Moodymann · Peacefrog Records. Related Chords & Tabs with "That Ol' Devil Called Love (Moodymann Remix)" Shine On You Crazy Diamond, Parts VI-IX. Buy Moodymann: Silence In The Secret Garden Vinyl 2LP at TurntableLab. The Fourth Track 5. 2, 2011 and Moodymann. it's here. 98). Buy Silence In The Secret Garden by Moodymann on Bleep. The Telephone EP was third in the limited Forevernevermore 12' series following Don't You Want My Love and In My Wagon. Yesterdays Party Watta Bout It C2. Free Mp3 Hard Party Feat Cerebral Vortex Moodymann Pugs Atomz Download , Lyric Hard Party Feat Cerebral Vortex Moodymann Pugs Atomz Chord Guitar , Free Ringtone Hard Party Feat Cerebral Vortex Moodymann Pugs Atomz Download , and Get Hard Party Feat Cerebral Vortex Moodymann Pugs Atomz Hiqh Qualtiy audio from Amazon , Spotify , Deezer , Itunes , Google Play , Youtube , Soundcloud and …Moodymann's eponymous LP is a tasty slice of classic sounding house jams. mahoganimusic. facebook. "Shine" reminded Title track 'Shine' is the anthem in waiting. Riot and that was an easy one to get hold of and was in shops months after release (maybe still is), the last 5 or 6 releases I've ended up paying £50 a few days after release as they disappeared instantly. First is "DEM YOUNG SCONIES" which was originally released on PLANET E in 1997. The flip is "THE THIRD TRACK" which will make you sweat just listening to it - orig on KDJ7. The driver of a van had a fatal gunshot wound to the head. Moodymann - Silence In The Secret Garden (Vinyl 2LP) 23,95 € 2018 Reissue - Limited Edition! moodymann,andres,moodyman,theo parrish,kyle hall,steven julien Electron Moodymann - Silence In The Secret Garden (vinyl) - Peacefrog Records - Double LP: £21. Black Mahogani. Moodymann - Silence In The Secret Garden. Now I have a pair of AT-LP1240 turntables and DJM-450 mixer… saving up for the dream: Technics and the MP2015. reissued on Peacefrog Records. com/album/silence-in-the-secret-garden-mwSilence in the Secret Garden may show more versatility in songwriting style, but that doesn't necessarily result in startling work, and levels of enjoyment will vary from listener to listener, depending on what your reasons are for liking Moodymann in the first place. Sunday Mornin 11. People 3:33 18. Credit: Boiler RoomJul 20, 2011 · 104 videos Play all Top Tracks - Moodymann Moodymann - Topic Peter Criss of KISS and his imposter on Phil Donahue 1991 - Duration: 44:51. Nicolas Diez. 99 Visit the post for more. com Established 1974. Released. Stone Oden Joe 10. !K7 represents a varied roster of artists, those signed to the label and those who release music elsewhere. Appears on. Loading Unsubscribe from imadouadani? Cancel Unsubscribe. Kicking off on Friday in District 8, the clubbers of Dublin will be treated to the mysterious sounds of Moodymann, one of the finest house selectors in the game. Moodymann · Shine; lyrics. Available online. This favorite tune from Detroit's MOODYMANN gets an authorized edit by YOUANDME! While the original version is near perfection, this mix sees the track in a more dancefloor workout type of structure without compromising the feel of the original. moodymann. Forevernevermore 2. You never know what to expect in a Moodymann set other than he knows how to party. Moodymann ‎– Silence In The Secret Garden – 2×12″ (PFG036) (Reissue)Minnie Driver - Everything I've Got In My Pocket (2004) Lossless; Bernard Haitink - Mahler: The Symphonies & Song Cycles (2019) [Hi-Res] Myriam Bleau - Lumens & Profits (2019)Moodymann - Silence In The Secret Garden (Vinyl 2LP) 23,95 € 2018 Reissue - Limited Edition! moodymann,andres,moodyman,theo parrish,kyle hall,steven julien Electron Shine: C1. Blackmood. Moodymann - Silence In The Secret Garden (full album)  Moodymann - Silence in The Secret Garden - Peacefrog - YouTube www. More by Moodymann. A. Moodymann/SHINE EP 12" Moodymann/SWEET YESTERDAY (PEACEFROG)12" $12. $13. N. Silence In The Secret Garden 3. DJ-Kicks (Moodymann) [Mixed Tracks] Moodymann. Moodymann doesn’t leave it there though, the tune continues to mutate and surprise throughout its course; as the bass emerges and recedes allowing the vocals to shine out What Do You See? (Moodymann Mix) Good Kiss (Urban Tribe Mix) Get On Up (Theo Parrish’s Late Dub) Get On Up (Rick’s Groove Mix) Drum Patterns & Memories (Rick’s Morning Service Mix) Drum Patterns & Memories (Moodymann Mix) Drum Patterns & Memories (Moodyman’s Unreleased Mix) Dreams Of Yesterday (Rick Will Never Forget Mix) Listen to Silence in the Secret Gardenby Moodymann on Slacker Radio, where you can also create personalized internet radio stations based on your favorite albums, artists and songs. KDJ's 3rd album on Peacefrog. Iconic producer and DJ Moodymann has shared shocking footage of himself being arrested at gunpoint, claiming that the detainment took Equally reclusive and prolific, Moodymann (a. Shades Of Jae 3. Pitch Black City) Moodymann delivers once again on SILENCE IN THE SECRET GARDEN. 8 チャート Shine by Moodymann on Peacefrog : 2 チャート Listen to your favorite songs from Silence in the Secret Garden by Moodymann Now. DECKS CLASSIX taps into MOODYMANN's catalog with this 12" and features two unforgettable tracks. Track taken from Moodymann's 'Silence in the Secret Garden' (2003) If problems continue, try clearing browser cache and storage by clicking here. Listen to your favorite songs from Silence in the Secret Garden by Moodymann Now. . With Detroit’s annual Movement Festival set to take place at the end of May, we thought it an apt time to shine a spotlight on some of the city’s lesser known — but no less exceptional — techno talents. Guaranteed fast delivery and low prices. About Moodymann Tour Albums. Silence in the Secret Garden, an Album by Moodymann. a. Good on Daft Punk to make him shine one more time (pun intended ) and just like Kanye I like to listen to his lyrics, to the actual words and the grade of storytelling involved that take you from A to Z on a beautiful journey (I’m mentioning Kanye, as despite everything I love him for that)

www.000webhost.com